Skip to main content

More right-solid
Show sorted alphabetically
Show sorted alphabetically
SHOW DETAILS
up-solid down-solid
eye
Title
Date Archived
Creator
toodiesel Favorites
collection
2
ITEMS
2
VIEWS
Feb 25, 2015
collection
eye 2
toodiesel Favorites
Topic: favorites
Alex Skolnick Trio
Sep 16, 2008 Alex Skolnick Trio
etree
eye 2,052
favorite 1
comment 0
Alex Skolnick Trio Elbo Room Chicago, Illinois USA 2002-09-13 Recorded by: mlvcarlos Aud > Core Sound Binaural Mics > Sony MZ-R70 > Sound Forge 9.0 > Traders Little Helper > Flac (level 6) Alex Skolnick - Guitar John Graham-Davis - Acoustic Bass Matt Zebroski - Drums Tracks: 01. No One Like You (Scorpions) 9:07 02. Detroit Rock City (Kiss) 9:35 03. Goodbye To Romance (Ozzy Osbourne) 9:32 04. Still Loving You (Scorpions) 14:51 05. Pinball Wizard (The Who) 11:15 06. Highway Star...
Topic: Jazz
Alex Skolnick Trio
Sep 14, 2008 Alex Skolnick Trio
etree
eye 2,429
favorite 2
comment 0
1. Intro 2. Dream On 3. Detroit Rock City 4. Detroit Rock City (part 2) 5. The Lizard 6. Electric Eye 7. Revelation (Mother Earth) 8. Tom Sawyer 9. Last Day in Paradise 10.Western Sabbath Stomp 11.No One Like You 12.Shades of Grey 13.Both Feet In 14.Scorch 15.Goodbye to Romance 16.War Pigs
Topic: jazz
Alex Skolnick Trio
Apr 1, 2008 Alex Skolnick Trio
etree
eye 2,132
favorite 0
comment 1
TRACK 01 AUDIO TITLE "Intro" PERFORMER "Alex Skolnick Trio" INDEX 01 00:00:00 TRACK 02 AUDIO TITLE "Still Loving You" PERFORMER "Alex Skolnick Trio" INDEX 01 02:58:00 TRACK 03 AUDIO TITLE "Mercury Retrograde" PERFORMER "Alex Skolnick Trio" INDEX 01 13:58:00 TRACK 04 AUDIO TITLE "Detroit Rock City" PERFORMER "Alex Skolnick Trio" INDEX 01 19:05:00 TRACK 05 AUDIO TITLE "The Lizard" PERFORMER "Alex...
favoritefavoritefavorite ( 1 reviews )
Topics: Jazz, Metal
Alex Skolnick Trio
Mar 31, 2008 Alex Skolnick Trio
etree
eye 1,642
favorite 0
comment 0
intro 0:00 Still Loving You 2:34 Mercury Retrograde 11:00 Detroit Rock City 16:16 The Lizard 26:00 Tom Sawyer 33:21 Last Day in Paradise In 41:59 Western Sabbath Stomp 48:00
Topics: Jazz, Metal
Source: aud
Alex Skolnick Trio
Mar 31, 2008 Alex Skolnick Trio
etree
eye 1,854
favorite 0
comment 0
1. Highway Star 2. Still Loving You 3. Detroit Rock City 4. Goodbye to Romance 5. Dream On 6. War Pigs
Topics: Jazz, Metal
Source: AUD
Alex Skolnick Trio
Apr 11, 2007 Alex Skolnick Trio
etree
eye 3,344
favorite 2
comment 0
Alex Skolnick Trio Live from The Montage Grille - Rochester, NY 10-14-04 Band Alex Skolnick - Guitars Nathan Peck - Bass Matt Zebroski - Drums Setlist CD1 Still Loving You Alex's Remarks Transformation Money Dont Talk To Strangers Alex's Remarks Detroit Rock City CD2 Electric Eye Alex's Remarks Fear Of Flying Scorch Alex's Remarks Blackout Encore Applause War Pigs
Topic: Jazz
Source: aud
Alex Skolnick Trio
Sep 24, 2006 Alex Skolnick Trio
etree
eye 1,675
favorite 0
comment 0
Source: AUD > minidisc
Alex Skolnick Trio
Sep 19, 2006 Alex Skolnick Trio
etree
eye 5,121
favorite 3
comment 0
Setlist Set 1 Still Loving You Transformation Fear of Flying Western Sabbath Practique lo que predicas Detroit Rock City Set 2 Tom Sawyer The Lizard Goodbye to Romance Both Feet In Electric Eye War Pigs First time Western Sabbath, The Lizard, and Practique lo que Predicas were ever played live! 08-31-2006 Schenectady NY, The Van Dyck Restaurant 1. Still Loving You 1. Still Loving You 1. Still Loving You 1. Tom Sawyer 1. Tom Sawyer 1. Tom Sawyer 2. The Lizard 2. The Lizard 2. The Lizard 2....
Source: AUD > rh1 minidisc